登陆信息
CD (2015/3/25)
光碟数目: 1
レーベル: 日本コロムビア
収録時間: 63 分
ASIN: B00T3SY7OU
EAN: 4988001772484

商品の説明
内容紹介
TVアニメ「新妹魔王の契約者(テスタメント)」より、アルバム第2弾が早くも発売決定!

2015年1月より放送開始の新番組「新妹魔王の契約者」より、サントラ&キャラクターソングアルバムの第2弾が発売決定!
「NARUTO」「美少女戦士セーラームーン」などを手掛けた高梨康治によるBGMのほか、新録キャラクターソングの数々を収録。

【収録予定】
■「新妹魔王の契約者」BGM
■新録キャラクターソング
メディア掲載レビューほか
2015年1月より放送のTVアニメ『新妹魔王の契約者』のサントラ&キャラクターソング・アルバムの第2弾。『NARUTO』『美少女戦士セーラームーン』などを手掛けた高梨康治によるBGMのほか、新録キャラクターソングの数々を収録。 (C)RS

収録曲
01. 刃更
02. 勇魔激突
03. 勇者のやさしさ
04. ミステリアスな瞳
05. ほんとはうれしいくせに
06. なんで入ってくるのよ
07. ふるえる心
08. 危ないやつら
09. お前だけは許せない
10. 魔法をかけられて
11. 甘いささやき
12. お兄ちゃんのバカ
13. 超・刺・激・的
14. 光ある世界
15. Blade of Hope ~Lyrical Arrange~
16. 闇からの呼び声
17. 荒ぶる魔人
18. 守り抜く闘志
19. 故郷への遠い道
20. 逃れられぬ運命
21. 魔界のコラール
22. 魔力目覚めるとき
23. 魔王降臨
24. バニシングシフト
25. Tomorrow Never Knows
26. 恋する悪魔
27. Still Sis (TV Size)
歌 : 佐土原かおり

28. Dear My Darling
歌 : 成瀬澪(CV.朝井彩加)、成瀬万理亜(CV.福原香織)

29. Symphony Memory
歌 : 野中柚希(CV.ブリドカットセーラ恵美)、野中胡桃(CV.野水伊織)

——————————————————————————————-
Scanned and ripped by ksxg@astost@U2
严禁用作任何商业用途,此档只做搅流试听之用,请于24h后删除
——————————————————————————————-

在标明上述紫色字的前提下允许转载分流,谢谢合作

Exact Audio Copy V1.0 beta 3 from 29. August 2011

EAC extraction logfile from 18. April 2015, 19:55

高梨康治 / 新妹魔王の契約者 臨界突破の悦楽音楽集

Used drive : MATSHITADVD-R UJ-898 Adapter: 1 ID: 0

Read mode : Secure
Utilize accurate stream : Yes
Defeat audio cache : Yes
Make use of C2 pointers : No

Read offset correction : 102
Overread into Lead-In and Lead-Out : No
Fill up missing offset samples with silence : Yes
Delete leading and trailing silent blocks : No
Null samples used in CRC calculations : Yes
Used interface : Native Win32 interface for Win NT & 2000

Used output format : User Defined Encoder
Selected bitrate : 1024 kBit/s
Quality : High
Add ID3 tag : No
Command line compressor : C:\Program Files (x86)\Exact Audio Copy\Flac\flac.exe
Additional command line options : -8 -V -T “ARTIST=%artist%” -T “ALBUM=%albumtitle%” -T “DATE=%year%” -T “TRACKNUMBER=%tracknr%” -T “GENRE=%genre%” -T “PERFORMER=%albuminterpret%” -T “COMPOSER=%composer%” %haslyrics%–tag-from-file=LYRICS=”%lyricsfile%”%haslyrics% -T “ALBUMARTIST=%albumartist%” -T “DISCNUMBER=%cdnumber%” -T “TOTALDISCS=%totalcds%” -T “TOTALTRACKS=%numtracks%” -T “COMMENT=EAC V1.0 beta 3, Secure Mode, Test & Copy, AccurateRip, FLAC -8” %source% -o %dest%

TOC of the extracted CD

Track | Start | Length | Start sector | End sector
———————————————————
1 | 0:00.00 | 1:37.40 | 0 | 7314
2 | 1:37.40 | 1:50.12 | 7315 | 15576
3 | 3:27.52 | 2:12.05 | 15577 | 25481
4 | 5:39.57 | 2:14.50 | 25482 | 35581
5 | 7:54.32 | 1:04.24 | 35582 | 40405
6 | 8:58.56 | 1:23.30 | 40406 | 46660
7 | 10:22.11 | 2:03.73 | 46661 | 55958
8 | 12:26.09 | 1:44.47 | 55959 | 63805
9 | 14:10.56 | 1:48.55 | 63806 | 71960
10 | 15:59.36 | 1:58.12 | 71961 | 80822
11 | 17:57.48 | 2:13.63 | 80823 | 90860
12 | 20:11.36 | 1:25.40 | 90861 | 97275
13 | 21:37.01 | 1:24.57 | 97276 | 103632
14 | 23:01.58 | 2:25.66 | 103633 | 114573
15 | 25:27.49 | 2:10.69 | 114574 | 124392
16 | 27:38.43 | 1:57.49 | 124393 | 133216
17 | 29:36.17 | 2:40.54 | 133217 | 145270
18 | 32:16.71 | 2:11.58 | 145271 | 155153
19 | 34:28.54 | 2:08.38 | 155154 | 164791
20 | 36:37.17 | 2:12.43 | 164792 | 174734
21 | 38:49.60 | 1:57.51 | 174735 | 183560
22 | 40:47.36 | 2:06.33 | 183561 | 193043
23 | 42:53.69 | 2:31.71 | 193044 | 204439
24 | 45:25.65 | 1:36.63 | 204440 | 211702
25 | 47:02.53 | 2:43.67 | 211703 | 223994
26 | 49:46.45 | 2:47.70 | 223995 | 236589
27 | 52:34.40 | 1:33.37 | 236590 | 243601
28 | 54:08.02 | 3:45.67 | 243602 | 260543
29 | 57:53.69 | 4:49.65 | 260544 | 282283

Range status and errors

Selected range

Filename C:\EAC\新妹魔王の契約者 臨界突破の悦楽音楽集\高梨康治 – 新妹魔王の契約者 臨界突破の悦楽音楽集.wav

Peak level 98.8 %
Extraction speed 2.6 X
Range quality 100.0 %
Test CRC CE10026B
Copy CRC CE10026B
Copy OK

No errors occurred

AccurateRip summary

Track 1 not present in database
Track 2 not present in database
Track 3 not present in database
Track 4 not present in database
Track 5 not present in database
Track 6 not present in database
Track 7 not present in database
Track 8 not present in database
Track 9 not present in database
Track 10 not present in database
Track 11 not present in database
Track 12 not present in database
Track 13 not present in database
Track 14 not present in database
Track 15 not present in database
Track 16 not present in database
Track 17 not present in database
Track 18 not present in database
Track 19 not present in database
Track 20 not present in database
Track 21 not present in database
Track 22 not present in database
Track 23 not present in database
Track 24 not present in database
Track 25 not present in database
Track 26 not present in database
Track 27 not present in database
Track 28 not present in database
Track 29 not present in database

None of the tracks are present in the AccurateRip database

End of status report

==== Log checksum 7B05A9E9ECDCFE845FFCA570E74D1FF8D40621B972276CA9EF8252115A4C8D34 ====

00:00/00:00

新妹魔王の契約者 臨界突破の悦楽音楽集

2015-04-21

ksxg@astost@U2

845MB / RAR / 提取:asd8

关于

如百度分享中没有文件,说明正在上传中....请耐心等待 请用winrar5.0+解压