登陆信息
CD (2015/5/20)
光碟数目: 2
フォーマット: Single, CD+DVD, Limited Edition
レーベル: A-Sketch
収録時間: 20 分
ASIN: B00VH8JLUE
EAN: 4562256122531

曲目リスト
ディスク:1
1. くちづけDiamond
2. Beloved
3. Inception
4. Time Piece
ディスク:2
1. 夢じゃないこの世界 (WEAVER Special Live 2015 『Guess What!? We Have A Guest!! WEAVER × ゲスの極み乙女。』 at 恵比寿
2. Shall we dance (WEAVER Special Live 2015 『Guess What!? We Have A Guest!! WEAVER × ゲスの極み乙女。』 at 恵比寿
3. 君と僕のテーマソング (WEAVER Special Live 2015 『Guess What!? We Have A Guest!! WEAVER × ゲスの極み乙女。』 at 恵比寿
4. 2次元銀河 (WEAVER Special Live 2015 『Guess What!? We Have A Guest!! WEAVER × ゲスの極み乙女。』 at 恵比寿LIQUIDROOM)
5. Beloved (WEAVER Special Live 2015 『Guess What!? We Have A Guest!! WEAVER × ゲスの極み乙女。』 at 恵比寿
6. くちづけDiamond (Music Video)

商品の説明
内容紹介
≪初回限定盤 収録内容≫

【収録曲】
M1.くちづけDiamond
<TVアニメ「山田くんと7人の魔女」オープニングテーマ>
M2.Beloved <映画「ライアの祈り」主題歌>
M3.Inception
M4.Time Piece

【DVD収録内容】
2015年3月31日(火)WEAVER Special Live 2015「Guess What!? We Have A Guest!! WEAVER × ゲスの極み乙女。」LIVE映像

【初回盤特典】
○「山田くんと7人の魔女」描き下ろしイラストワイドキャップステッカー
○ダイアモンドカットスリーブ&メンバージャケットカード
メディア掲載レビューほか
3ピース・ピアノバンド、WEAVERシングルは、TVアニメ『山田くんと7人の魔女』OPテーマ。C/Wには映画『ライアの祈り』主題歌として書き下ろされた「Beloved」を収録。 (C)RS

转载分流请注明wyjtzt@astost,严禁用作任何商业用途,谢谢合作

00:00/00:00

Exact Audio Copy V1.0 beta 6 from 9. April 2015

EAC extraction logfile from 22. May 2015, 10:40

WEAVER / くちづけDiamond 【初回限定盤】

Used drive : HL-DT-STDVDRAM GT30N Adapter: 1 ID: 0

Read mode : Secure
Utilize accurate stream : Yes
Defeat audio cache : No
Make use of C2 pointers : No

Read offset correction : 102
Overread into Lead-In and Lead-Out : No
Fill up missing offset samples with silence : Yes
Delete leading and trailing silent blocks : No
Null samples used in CRC calculations : Yes
Used interface : Native Win32 interface for Win NT & 2000

Used output format : Internal WAV Routines
Sample format : 44.100 Hz; 16 Bit; Stereo

TOC of the extracted CD

Track | Start | Length | Start sector | End sector
———————————————————
1 | 0:00.00 | 3:57.44 | 0 | 17818
2 | 3:57.44 | 4:46.64 | 17819 | 39332
3 | 8:44.33 | 5:12.19 | 39333 | 62751
4 | 13:56.52 | 5:51.45 | 62752 | 89121

Range status and errors

Selected range

Filename C:\Users\丶只影灬随风\Desktop\WEAVER – くちづけDiamond 【初回限定盤】.wav

Peak level 100.0 %
Extraction speed 5.1 X
Range quality 100.0 %
Test CRC 116DD85B
Copy CRC 116DD85B
Copy OK

No errors occurred

End of status report

—- CUETools DB Plugin V2.1.6

[CTDB TOCID: tPVXYssOMfZ4GjN_SknzHM2qXSY-] disk not present in database
Submit result: tPVXYssOMfZ4GjN_SknzHM2qXSY- has been uploaded

==== Log checksum 908FA083A358C131D629BEA4A65F40CCC6401D3255FF472E1C8680EE8F276403 ====

「くちづけDiamond」/WEAVER

2015-05-25

wyjtzt@astost

1.86GB / RAR / 提取:eqpv

关于

如百度分享中没有文件,说明正在上传中....请耐心等待 请用winrar5.0+解压