登録情報
CD (2015/5/27)
ディスク枚数: 2
フォーマット: Single, CD+DVD, Limited Edition
レーベル: アニプレックス
収録時間: 23 分
ASIN: B00UVZT686
品番: SVWC-70081~2
HP

商品の説明
2015年4月より放送のTVアニメ『ニセコイ』2期オープニング・テーマ「Rally Go Round」を収録したLiSAのシングル。作家には“じん”を迎え、『ニセコイ』の作品世界とリンクしつつ、新しいLiSAの可能性を感じさせるPOPな楽曲を披露。

「Rally Go Round」は、作曲に「じん」を迎え、作詞にはLiSA自身も携わった、迷っているキミの背中を押す、渾身のPOPな応援歌です!

【商品仕様】
☆初回生産限定盤…表題曲「Rally Go Round」ミュージッククリップDVD、16P撮り下ろしブックレット

※「初回生産限定盤・通常盤」和「期間生産限定盤」的TRACK3曲目不同

TRACKLIST
DISC1:CD
01. Rally Go Round
作詞:LiSA、古屋 真 作曲:じん 編曲:akkin

02. オレンジサイダー
作詞:LiSA 作曲:高橋浩一郎 編曲:akkin

03. Wake up! Sloth
作詞:LiSA 作曲:Tom-H@ck 編曲:Tom-H@ck

04. Rally Go Round -Instrumental-

DISC2:DVD
1. Rally Go Round -Music Clip-

Exact Audio Copy V1.0 beta 6 from 9. April 2015

EAC extraction logfile from 28. May 2015, 15:07

LiSA / Rally Go Round(初回生産限定盤)

Used drive : PIONEER BD-RW BDR-208M Adapter: 1 ID: 0

Read mode : Secure
Utilize accurate stream : Yes
Defeat audio cache : Yes
Make use of C2 pointers : No

Read offset correction : 667
Overread into Lead-In and Lead-Out : No
Fill up missing offset samples with silence : Yes
Delete leading and trailing silent blocks : No
Null samples used in CRC calculations : Yes
Used interface : Native Win32 interface for Win NT & 2000

Used output format : Internal WAV Routines
Sample format : 44.100 Hz; 16 Bit; Stereo

TOC of the extracted CD

Track | Start | Length | Start sector | End sector
———————————————————
1 | 0:00.00 | 4:37.57 | 0 | 20831
2 | 4:37.57 | 4:29.38 | 20832 | 41044
3 | 9:07.20 | 3:45.11 | 41045 | 57930
4 | 12:52.31 | 4:36.08 | 57931 | 78638

Range status and errors

Selected range

Filename C:\Users\user\Downloads\EAC\[EAC][150527] TVアニメ「ニセコイ」2期OPテーマ『Rally Go Round』(初回生産限定盤)/LiSA (wav+cue+log+png+iso)\SVWC-70081.wav

Peak level 99.9 %
Extraction speed 5.6 X
Range quality 100.0 %
Copy CRC AAE78DE3
Copy OK

No errors occurred

AccurateRip summary

Track 1 not present in database
Track 2 not present in database
Track 3 not present in database
Track 4 not present in database

None of the tracks are present in the AccurateRip database

End of status report

—- CUETools DB Plugin V2.1.6

[CTDB TOCID: nzd0csUReyUwu5z7ppXl2iyYsyY-] found
Submit result: nzd0csUReyUwu5z7ppXl2iyYsyY- has been confirmed
Track | CTDB Status
1 | (7/7) Accurately ripped
2 | (7/7) Accurately ripped
3 | (7/7) Accurately ripped
4 | (7/7) Accurately ripped

==== Log checksum 2A36271F9C2CC0FB9AA45E6723CD407C63B561E3521FD22FAFB0B1B0A2C825F0 ====

BK 1200dpi 精修(已去網紋) TIF
分為未縮圖版(816M)和有縮圖版(2800高,216M)
自取所需 (推薦下載縮圖版!)
轉載請註明 Scanned and ripped by h_12439@U2

00:00/00:00

『Rally Go Round』/LiSA

2015-06-01

h_12439@U2

1.47GB / RAR / 提取:hi8f

关于

如百度分享中没有文件,说明正在上传中....请耐心等待 请用winrar5.0+解压