2015年3月25日にリリースしたファースト・アルバム『Strawberry JAM』も好調の声優・小倉唯待望のシングルは、自身が出演するTVアニメ『城下町ダンデライオン』エンディング・テーマ。POPでキュートなダンスチューン!

<期間限定盤>
品番:KICM-91607
価格:¥1,800+税

【収録内容】
1. Honey♥Come!! (作詞:大森祥子/作曲:俊龍/編曲:大久保 薫)
 *TVアニメ「城下町のダンデライオン」EDテーマ
2. ガーリッシュエイジ (作詞:こだまさおり/作曲:神谷 礼/編曲:河合英嗣)
3. Honey♥Come!! (off vocal ver.)
4. ガーリッシュエイジ (off vocal ver.)

★期間限定盤特典★
・「Honey♥Come!!」MUSIC VIDEO
・MAKING
収録のDVD付き

00:00/00:00

Exact Audio Copy V1.1 from 23. June 2015

EAC extraction logfile from 14. August 2015, 23:11

小倉唯 / Honey♥Come!![期間限定盤]

Used drive : MATSHITABD-CMB UJ141AF Adapter: 1 ID: 0

Read mode : Secure
Utilize accurate stream : Yes
Defeat audio cache : Yes
Make use of C2 pointers : No

Read offset correction : 103
Overread into Lead-In and Lead-Out : No
Fill up missing offset samples with silence : Yes
Delete leading and trailing silent blocks : No
Null samples used in CRC calculations : Yes
Used interface : Native Win32 interface for Win NT & 2000

Used output format : Internal WAV Routines
Sample format : 44.100 Hz; 16 Bit; Stereo

TOC of the extracted CD

Track | Start | Length | Start sector | End sector
———————————————————
1 | 0:00.00 | 4:07.74 | 0 | 18598
2 | 4:07.74 | 3:31.07 | 18599 | 34430
3 | 7:39.06 | 4:07.02 | 34431 | 52957
4 | 11:46.08 | 3:29.19 | 52958 | 68651

Range status and errors

Selected range

Filename F:\小倉唯 – Honey♥Come!![期間限定盤].wav

Peak level 94.8 %
Extraction speed 3.0 X
Range quality 99.9 %
Copy CRC DE42995E
Copy OK

No errors occurred

End of status report

—- CUETools DB Plugin V2.1.6

[CTDB TOCID: a.8MZtKMdI4TZJNAkDNC7ScX5Yk-] found
Submit result: a.8MZtKMdI4TZJNAkDNC7ScX5Yk- has been confirmed
Track | CTDB Status
1 | (16/17) Accurately ripped
2 | (16/17) Accurately ripped
3 | (16/17) Accurately ripped
4 | (16/17) Accurately ripped

==== Log checksum 6E66D4C222CE912B7A01B739B814AB8FBE687ADDF83BAFBB3B60EEEE54B0E8CF ====

Honey Come!!

2015-7-22

七七咖咖@astost

RAR / 1.7G / 提取:come

关于

如百度分享中没有文件,说明正在上传中....请耐心等待 请用winrar5.0+解压